A.Haunted.House.2.2014 فيلم رعب

أضف رد جديد
صورة العضو الرمزية
owner
مدير الموقع
مشاركات: 1596
اشترك في: الخميس يناير 29, 2015 11:26 pm
مكان: الارض
اتصال:

A.Haunted.House.2.2014 فيلم رعب

مشاركة بواسطة owner » الجمعة نوفمبر 20, 2015 9:41 pm

صورة

معلومات النسخه info

كود: تحديد الكل

  Format : AVI
   Format/Info : Audio Video Interleave
   File size : 1.36 GiB
   Duration : 1h 26mn
   Overall bit rate : 2 236 Kbps
   Writing application : VirtualDubMod 1.5.10.3 | www.virtualdub-fr.org || (build 2550/release)
   Writing library : VirtualDubMod build 2550/release
Video #0
   ID : 0
   Format : MPEG-4 Visual
   Format profile : Advanced Simple@L5
   Format settings, BVOP : 1
   Format settings, QPel : No
   Format settings, GMC : No warppoints
   Format settings, Matrix : Default (H.263)
   Codec ID : XVID
   Codec ID/Hint : XviD
   Duration : 1h 26mn
   Bit rate : 1 778 Kbps
   Width : 720 pixels
   Height : 384 pixels
   Display aspect ratio : 1.85:1
   Frame rate : 23.976 fps
   Color space : YUV
   Chroma subsampling : 4:2:0
   Bit depth : 8 bits
   Scan type : Progressive
   Compression mode : Lossy
   Bits/(Pixel*Frame) : 0.268
   Stream size : 1.08 GiB (80%)
   Writing library : XviD 73
Audio #1
   ID : 1
   Format : AC-3
   Format/Info : Audio Coding 3
   Mode extension : CM (complete main)
   Format settings, Endianness : Big
   Codec ID : 2000
   Duration : 1h 26mn
   Bit rate mode : Constant
   Bit rate : 448 Kbps
   Channel(s) : 6 channels
   Channel positions : Front: L C R, Side: L R, LFE
   Sampling rate : 48.0 KHz
   Bit depth : 16 bits
   Compression mode : Lossy
   Stream size : 278 MiB (20%)
   Alignment : Split accross interleaves
   Interleave, duration : 42 ms (1.00 video frame)
   Interleave, preload duration : 500 ms
   
سكرين شوت
صورة

رابط التحميل
http://adf.ly/1S2bw3



أضف رد جديد